<?xml version="1.0" encoding="UTF-8" standalone="no"?>
<!-- Creator: CorelDRAW -->

<svg
   xml:space="preserve"
   width="9.8095999mm"
   height="7.0000153mm"
   style="clip-rule:evenodd;fill-rule:evenodd;image-rendering:optimizeQuality;shape-rendering:geometricPrecision;text-rendering:geometricPrecision"
   viewBox="0 0 9.8095999 7.0000153"
   version="1.1"
   id="svg1574"
   sodipodi:docname="instats.svg"
   inkscape:version="1.2.2 (732a01da63, 2022-12-09)"
   xmlns:inkscape="http://www.inkscape.org/namespaces/inkscape"
   xmlns:sodipodi="http://sodipodi.sourceforge.net/DTD/sodipodi-0.dtd"
   xmlns="http://www.w3.org/2000/svg"
   xmlns:svg="http://www.w3.org/2000/svg"><sodipodi:namedview
   id="namedview1576"
   pagecolor="#ffffff"
   bordercolor="#000000"
   borderopacity="0.25"
   inkscape:showpageshadow="2"
   inkscape:pageopacity="0.0"
   inkscape:pagecheckerboard="0"
   inkscape:deskcolor="#d1d1d1"
   inkscape:document-units="mm"
   showgrid="false"
   inkscape:zoom="2.3786088"
   inkscape:cx="164.59201"
   inkscape:cy="842.50929"
   inkscape:window-width="2560"
   inkscape:window-height="1537"
   inkscape:window-x="-8"
   inkscape:window-y="-8"
   inkscape:window-maximized="1"
   inkscape:current-layer="Skikt_x0020_1" />
 <defs
   id="defs885"><font
     id="FontID0"
     font-variant="normal"
     style="fill-rule:nonzero"
     font-style="normal"
     font-weight="400,700"
     horiz-origin-x="0"
     horiz-origin-y="0"
     horiz-adv-x="1024"
     vert-origin-x="512"
     vert-origin-y="768"
     vert-adv-y="1024">
	<font-face
   font-family="Arial"
   id="font-face790">
	</font-face>
   <missing-glyph
   id="missing-glyph794"><path
     d="M0 0z"
     id="path792" /></missing-glyph>
   <glyph
   unicode=" "
   horiz-adv-x="277"
   id="glyph796" />
   <glyph
   unicode=","
   horiz-adv-x="277"
   id="glyph800"><path
     d="M88.8317 0l0 100.17 100.17 0 0 -100.17c0,-36.8497 -6.49775,-66.5039 -19.4933,-89.1806 -13.1699,-22.5023 -33.8407,-39.9895 -62.0121,-52.5053l-24.5083 37.6783c18.4903,8.1549 32.1835,20.191 40.9925,35.8467 8.85264,15.8301 13.6933,38.5068 14.6963,68.161l-49.8452 0z"
     id="path798" /></glyph>
   <glyph
   unicode="3"
   horiz-adv-x="556"
   id="glyph804"><path
     d="M42.0076 189l87.8309 11.6535c10.1753,-49.8109 27.329,-85.6652 51.4954,-107.666 24.3383,-22.0007 53.8329,-33.001 88.6559,-33.001 41.3544,0 76.3493,14.3348 104.847,43.0045 28.3259,28.6696 42.6607,64.1801 42.6607,106.497 0,40.3575 -13.166,73.6679 -39.4981,99.8625 -26.504,26.1602 -59.9862,39.3262 -100.653,39.3262 -16.6724,0 -37.3324,-3.33448 -62.0144,-9.83156l9.83156 77.1399c5.84393,-0.653145 10.5191,-0.996906 14.1629,-0.996906 37.3324,0 71.021,9.83156 100.997,29.3572 30.0103,19.4912 44.9983,49.6391 44.9983,90.3059 0,32.176 -11.0003,59.0237 -32.8292,80.0275 -21.8288,21.1413 -49.9828,31.8322 -84.4964,31.8322 -34.1698,0 -62.6676,-10.8285 -85.3214,-32.176 -22.8257,-21.485 -37.5043,-53.8329 -44.0014,-96.8374l-87.8309 15.6755c10.6566,58.9893 35.1667,104.675 73.1523,136.989 38.1574,32.3479 85.4933,48.6765 142.179,48.6765 38.9825,0 75.0086,-8.49089 107.838,-25.1633 32.8292,-16.8443 57.9924,-39.67 75.4899,-68.6834 17.3255,-28.979 26.1602,-59.6425 26.1602,-92.3341 0,-30.8353 -8.31901,-58.9893 -24.9914,-84.4964 -16.6724,-25.3352 -41.1825,-45.4795 -73.6679,-60.5019 42.3169,-9.65968 75.1805,-29.9759 98.6593,-60.8113 23.3414,-30.6978 34.9948,-69.1647 34.9948,-115.332 0,-62.5301 -22.6538,-115.504 -68.3396,-159.024 -45.4795,-43.4857 -103.163,-65.1427 -172.809,-65.1427 -62.8395,0 -115.022,18.6662 -156.514,56.1361 -41.4919,37.3324 -65.177,85.8371 -70.9866,145.514z"
     id="path802" /></glyph>
   <glyph
   unicode="5"
   horiz-adv-x="556"
   id="glyph808"><path
     d="M41.5159 187.519l92.3204 7.80603c6.84663,-45.0046 22.6767,-78.6708 47.4903,-101.304 24.988,-22.6767 54.9911,-34.0151 90.1836,-34.0151 42.3444,0 78.1475,16.0045 107.322,47.8392 29.3489,32.0091 44.0016,74.3099 44.0016,126.99 0,50.1505 -13.9985,89.6603 -42.17,118.66 -28.1715,29 -64.9775,43.5219 -110.68,43.5219 -28.3023,0 -53.8136,-6.49775 -76.6648,-19.3624 -22.8076,-12.8211 -40.6437,-29.4797 -53.6392,-49.976l-82.5084 10.6406 69.3385 367.668 355.981 0 0 -83.9911 -285.64 0 -38.6813 -192.316c42.9986,30.0031 88.1776,45.0046 135.319,45.0046 62.4918,0 115.172,-21.6737 158.17,-65.0212 42.9986,-43.3474 64.4978,-98.9926 64.4978,-166.979 0,-64.8467 -18.97,-120.841 -56.6482,-168.026 -46.0076,-57.8257 -108.674,-86.8257 -187.999,-86.8257 -65.1956,0 -118.355,18.185 -159.522,54.6858 -41.167,36.5008 -64.6723,84.8197 -70.4723,145z"
     id="path806" /></glyph>
   <glyph
   unicode="2"
   horiz-adv-x="556"
   id="glyph812"><path
     d="M503.511 84.5144l0 -84.5144 -473.159 0c-0.697745,21.1504 2.66015,41.5159 10.1609,61.0091 11.9925,32.3143 31.3113,63.9745 57.8257,95.3295 26.6452,31.1805 64.9775,67.3324 114.997,108.325 77.8422,63.8437 130.478,114.343 157.821,151.672 27.3429,37.1549 40.9925,72.4783 40.9925,105.665 0,34.8437 -12.4722,64.149 -37.3294,88.1776 -24.988,23.8106 -57.4768,35.8031 -97.4663,35.8031 -42.3444,0 -76.1851,-12.6466 -101.522,-38.158 -25.5113,-25.3369 -38.3324,-60.4858 -38.6813,-105.316l-90.3144 9.15791c6.14888,67.5069 29.4797,118.835 69.8182,154.158 40.3384,35.3234 94.6753,53.0287 162.662,53.0287 68.6843,0 123.021,-19.188 163.011,-57.1715 40.164,-38.2016 60.1805,-85.343 60.1805,-141.686 0,-28.6512 -5.84362,-56.8226 -17.6617,-84.5144 -11.6872,-27.6482 -31.1805,-56.8226 -58.349,-87.3054 -27.1685,-30.6572 -72.3475,-72.6963 -135.493,-125.987 -52.6798,-44.3504 -86.5204,-74.3535 -101.522,-90.1836 -15.0015,-15.6557 -27.2993,-31.4858 -37.1549,-47.4903l351.184 0z"
     id="path810" /></glyph>
   <glyph
   unicode="1"
   horiz-adv-x="556"
   id="glyph816"><path
     d="M393.496 0l-137.156 0 0 517.166c-50.1754,-47.0125 -109.178,-81.6608 -177.181,-104.003l0 124.504c35.6835,11.674 74.6736,33.8432 116.683,66.5076 41.9806,32.8369 70.8206,70.9932 86.3189,114.67l111.335 0 0 -718.845z"
     id="path814" /></glyph>
   <glyph
   unicode="G"
   horiz-adv-x="777"
   id="glyph820"><path
     d="M412.165 280.822l0 83.8408 303.182 0.491063 0 -265.501c-46.52,-37.1571 -94.5132,-64.984 -144.012,-83.808 -49.4991,-18.6931 -100.34,-28.0233 -152.328,-28.0233 -70.3529,0 -134.355,15.0265 -191.678,45.1778 -57.4871,29.9876 -100.832,73.6594 -130.164,130.492 -29.3328,56.996 -43.9992,120.67 -43.9992,191.023 0,69.6654 14.6664,134.649 43.8355,194.985 29.0054,60.4989 71.0077,105.349 125.679,134.682 54.6389,29.1364 117.659,43.8028 188.994,43.8028 51.6598,0 98.5072,-8.31533 140.313,-25.1424 41.8385,-16.6634 74.6743,-40.0052 98.3435,-69.9928 23.8329,-30.0203 41.8385,-69.0107 54.3443,-117.168l-85.5104 -23.5055c-10.8361,36.5023 -24.1603,65.1476 -40.0052,86.0014 -16.0086,20.8211 -38.8267,37.4844 -68.4869,49.9902 -29.4965,12.5057 -62.4959,18.8241 -98.5072,18.8241 -43.3445,0 -80.8289,-6.64571 -112.322,-19.8389 -31.6899,-13.1605 -56.996,-30.4786 -76.5076,-51.9872 -19.3479,-21.5085 -34.3416,-45.0141 -45.1778,-70.844 -18.1693,-44.1629 -27.3358,-92.1561 -27.3358,-143.98 0,-63.8381 10.9998,-117.168 32.9994,-160.185 21.9996,-42.9844 54.0169,-74.8379 96.0191,-95.659 42.0022,-20.8211 86.4925,-31.3298 133.667,-31.3298 41.1511,0 81.1563,7.98795 120.147,23.8329 39.1868,15.6813 68.6833,32.5083 88.8496,50.514l0 133.307 -210.339 0z"
     id="path818" /></glyph>
   <glyph
   unicode="A"
   horiz-adv-x="722"
   id="glyph824"><path
     d="M718.328 0l-157.341 0 -62.482 162.66 -286.158 0 -59.0028 -162.66 -153.344 0 278.826 715.826 152.855 0 286.647 -715.826zm-266.174 283.168l-98.6543 265.656 -96.6703 -265.656 195.325 0z"
     id="path822" /></glyph>
   <glyph
   unicode="L"
   horiz-adv-x="610"
   id="glyph828"><path
     d="M76.6645 0l0 709.994 144.494 0 0 -589.332 359.338 0 0 -120.662 -503.832 0z"
     id="path826" /></glyph>
   <glyph
   unicode="H"
   horiz-adv-x="722"
   id="glyph832"><path
     d="M80.0008 0l0 715.824 94.8398 0 0 -293.992 371.987 0 0 293.992 94.8398 0 0 -715.824 -94.8398 0 0 337.325 -371.987 0 0 -337.325 -94.8398 0z"
     id="path830" /></glyph>
   <glyph
   unicode="I"
   horiz-adv-x="277"
   id="glyph836"><path
     d="M68.3386 0l0 715.824 144.494 0 0 -715.824 -144.494 0z"
     id="path834" /></glyph>
   <glyph
   unicode="B"
   horiz-adv-x="722"
   id="glyph840"><path
     d="M73.1654 715.843l286.173 0c56.6614,0 98.9921,-2.33071 126.835,-7.1811 27.8425,-4.66142 52.6614,-14.4882 74.6457,-29.4803 22.0157,-15.0236 40.189,-34.8346 54.8346,-59.8425 14.6772,-24.8504 22.0157,-52.8504 22.0157,-83.685 0,-33.4803 -9.00787,-64.315 -26.9921,-92.315 -18.1732,-28 -42.6772,-49.0079 -73.5118,-62.9921 43.4961,-12.6929 77.1654,-34.3307 100.504,-64.8504 23.4961,-30.6772 35.1496,-66.6772 35.1496,-108 0,-32.5039 -7.49606,-64.1575 -22.6457,-94.9921 -15.1811,-30.6772 -35.8425,-55.3386 -62.0157,-73.6693 -26.1417,-18.3307 -58.4882,-29.6693 -96.9764,-34.0157 -24,-2.48819 -82.1732,-4.15748 -174.362,-4.8189l-243.654 0 0 715.843zm144.661 -119.181l0 -165.48 94.6772 0c56.315,0 91.3386,0.818898 105.008,2.48819 24.6614,2.83465 44.1575,11.3386 58.3307,25.5118 14.1732,14.1417 21.1654,32.8189 21.1654,56 0,22.1417 -6.01575,40.1575 -18.1732,53.9843 -12.3465,13.8268 -30.4882,22.1732 -54.4882,25.0079 -14.3307,1.66929 -55.5276,2.48819 -123.528,2.48819l-82.9921 0zm0 -284.661l0 -191.339 133.669 0c52.1575,0 85.1654,1.35433 99.1811,4.34646 21.4803,3.81102 38.9921,13.4803 52.5039,28.5039 13.4803,15.1496 20.315,35.4961 20.315,60.8189 0,21.5118 -5.32283,39.685 -15.6535,54.6772 -10.5197,14.9921 -25.5118,25.9843 -45.1654,32.8189 -19.685,6.83465 -62.5197,10.1732 -128.189,10.1732l-116.661 0z"
     id="path838" /></glyph>
   <glyph
   unicode="S"
   horiz-adv-x="667"
   id="glyph844"><path
     d="M36.1541 232.833l140.698 13.8552c8.30379,-47.3503 25.4712,-82.0116 51.5021,-104.171 25.7977,-22.019 60.6456,-33.1685 104.637,-33.1685 46.5105,0 81.685,9.7966 105.197,29.6697 23.6518,19.6399 35.501,42.6386 35.501,68.9961 0,16.9808 -5.03825,31.3025 -15.0215,43.1517 -9.84325,11.9892 -27.1506,22.3456 -52.0153,31.0226 -16.8408,5.97126 -55.4674,16.3277 -115.647,31.3025 -77.4865,19.1734 -131.834,42.8252 -162.997,70.8621 -43.9914,39.3264 -66.0104,87.3297 -66.0104,143.963 0,36.5273 10.3564,70.5355 31.0226,102.351 20.6662,31.6757 50.4758,55.8406 89.289,72.4949 39.0465,16.5143 85.8369,24.8181 140.838,24.8181 90.0355,0 157.539,-19.6399 203.023,-58.9662 45.3443,-39.513 69.1827,-91.9948 71.5152,-157.865l-144.523 -6.29782c-6.15787,36.8072 -19.4999,63.3047 -39.8395,79.3058 -20.3396,16.1877 -50.8024,24.165 -91.4816,24.165 -41.9854,0 -75.014,-8.49039 -98.6658,-25.8444 -15.348,-10.9629 -22.9987,-25.7977 -22.9987,-44.318 0,-16.9808 7.13753,-31.4891 21.5059,-43.4783 18.147,-15.348 62.465,-31.3491 132.814,-47.8634 70.3489,-16.6542 122.318,-33.8216 155.999,-51.5021 33.6817,-17.8205 59.9925,-41.9854 79.1659,-72.8214 18.9868,-30.836 28.5035,-68.8095 28.5035,-114.014 0,-40.9591 -11.3361,-79.4924 -34.1482,-115.133 -22.8587,-35.8276 -55.0009,-62.5117 -96.7065,-79.8656 -41.6589,-17.4939 -93.6275,-26.1709 -155.813,-26.1709 -90.502,0 -160.011,20.8528 -208.481,62.6983 -48.5165,41.8455 -77.5331,102.818 -86.8632,182.823z"
     id="path842" /></glyph>
   <glyph
   unicode="P"
   horiz-adv-x="666"
   id="glyph848"><path
     d="M72.8189 0l0 715.843 231.843 0c87.8425,0 145.165,-3.68504 171.843,-10.8346 41.0079,-10.6772 75.4961,-34.0157 103.15,-70.0157 27.685,-36 41.5118,-82.4882 41.5118,-139.339 0,-44 -8,-80.9764 -24,-110.835 -16,-29.9843 -36.1575,-53.4803 -60.8189,-70.6457 -24.5039,-17.0079 -49.5118,-28.3465 -74.8346,-33.8268 -34.5197,-6.83465 -84.5039,-10.3307 -150.016,-10.3307l-94.1732 0 0 -270.016 -144.504 0zm144.504 594.677l0 -203.024 79.0236 0c56.9764,0 95.1496,3.68504 114.331,11.1811 19.1496,7.49606 34.1417,19.1811 45.1654,35.1811 10.8346,16 16.315,34.4882 16.315,55.6535 0,25.9843 -7.65354,47.4961 -22.9921,64.5039 -15.1496,16.8189 -34.6772,27.4961 -57.9843,31.6535 -17.3543,3.33858 -52,4.85039 -104,4.85039l-69.8583 0z"
     id="path846" /></glyph>
   <glyph
   unicode="a"
   horiz-adv-x="556"
   id="glyph852"><path
     d="M404.341 64.0018c-32.672,-27.6632 -64.0018,-47.1748 -94.0221,-58.6656 -30.1512,-11.3272 -62.4959,-16.9908 -97.0012,-16.9908 -56.996,0 -100.635,13.8152 -131.31,41.6421 -30.5114,27.8596 -45.8325,63.5108 -45.8325,106.692 0,25.5025 5.66359,48.6479 17.3181,69.6654 11.4909,20.9847 26.6811,37.8118 45.3415,50.4812 18.8241,12.6694 39.8416,22.327 63.3471,28.8417 17.1545,4.48504 43.148,9.00282 77.9808,13.1605 71.0077,8.51175 123.322,18.4967 156.845,30.3477 0.327375,11.9819 0.491063,19.6425 0.491063,22.818 0,35.8476 -8.34807,61.1864 -25.0115,75.6891 -22.327,19.9699 -55.8175,29.8239 -99.9804,29.8239 -41.3475,0 -71.8261,-7.16951 -91.665,-21.6722 -19.6752,-14.5027 -34.178,-40.1689 -43.6718,-76.9986l-85.8378 11.8182c7.82427,36.666 20.6574,66.5226 38.4993,89.0133 17.8419,22.6544 43.8355,40.1689 77.6534,52.3473 33.8506,12.1456 73.0046,18.333 117.691,18.333 44.3266,0 80.1414,-5.33621 107.837,-15.6813 27.6632,-10.5087 47.9932,-23.5055 61.1537,-39.3178 12.9968,-15.845 21.9996,-35.6839 27.3358,-59.8442 2.81543,-14.9938 4.32135,-42.0022 4.32135,-80.9926l0 -117.168c0,-81.8438 1.8333,-133.504 5.66359,-155.012 3.6666,-21.6722 11.1635,-42.4933 22.1633,-62.3322l-91.8287 0c-9.00282,18.1693 -14.9938,39.5142 -17.4818,64.0018zm-7.3332 196.327c-32.0173,-13.1605 -79.8468,-24.1603 -143.521,-33.3268 -36.1422,-5.17253 -61.8084,-10.9998 -76.6385,-17.5146 -15.0265,-6.48203 -26.6811,-15.9759 -34.669,-28.6453 -8.18438,-12.5057 -12.342,-26.3537 -12.342,-41.6749 0,-23.5055 9.00282,-42.9844 26.6483,-58.6656 17.6783,-15.5176 43.6718,-23.3418 77.8498,-23.3418 33.8178,0 64.0018,7.3332 90.3228,22.1633 26.3537,14.8301 45.8325,35.1928 58.1746,60.859 9.49388,19.8062 14.1753,49.139 14.1753,87.802l0 32.3447z"
     id="path850" /></glyph>
   <glyph
   unicode="n"
   horiz-adv-x="610"
   id="glyph856"><path
     d="M543.518 0l-137.189 0 0 264.688c0,55.9581 -3.01179,92.1432 -8.81711,108.643 -5.84897,16.3247 -15.4954,29.1576 -28.6774,38.3239 -13.182,8.99171 -28.983,13.6622 -47.4902,13.6622 -23.8324,0 -45.1768,-6.50371 -63.9895,-19.4675 -18.8564,-13.182 -31.8638,-30.3361 -38.8477,-51.8551 -7.0275,-21.4753 -10.5194,-61.1523 -10.5194,-119.162l0 -234.832 -137.145 0 0 518.507 127.324 0 0 -76.1676c45.3514,58.6643 102.313,87.9965 171.017,87.9965 30.1615,0 57.966,-5.49978 82.9769,-16.3247 25.0109,-10.9996 43.9983,-24.8363 56.8311,-41.8595 12.8328,-16.9795 21.8245,-36.1414 26.8442,-57.6604 5.15059,-21.4753 7.68223,-52.1606 7.68223,-92.1432l0 -322.348z"
     id="path854" /></glyph>
   <glyph
   unicode="i"
   horiz-adv-x="277"
   id="glyph860"><path
     d="M71.8464 588.826l0 127.019 137.145 0 0 -127.019 -137.145 0zm0 -588.826l0 518.507 137.145 0 0 -518.507 -137.145 0z"
     id="path858" /></glyph>
   <glyph
   unicode="m"
   horiz-adv-x="889"
   id="glyph864"><path
     d="M61.4854 518.52l126.516 0 0 -70.6755c45.1577,55.0009 99.179,82.4781 161.644,82.4781 33.1685,0 61.9985,-6.81097 86.3501,-20.4796 24.4915,-13.6686 44.5046,-34.3348 60.1791,-61.9985 22.6721,27.6637 47.3036,48.3299 73.6611,61.9985 26.3109,13.6686 54.4878,20.4796 84.484,20.4796 38.0202,0 70.3489,-7.83728 96.6598,-23.3252 26.3575,-15.348 45.9974,-38.1601 59.0129,-68.0164 9.5167,-22.159 14.1818,-57.9866 14.1818,-107.483l0 -331.498 -137.152 0 0 296.324c0,51.5021 -4.7117,84.6706 -14.1818,99.6921 -12.6889,19.4999 -32.1888,29.2965 -58.4997,29.2965 -19.36,0 -37.3204,-5.83131 -54.3478,-17.6339 -16.8408,-11.6626 -28.97,-28.83 -36.4807,-51.5021 -7.51073,-22.6721 -11.3361,-58.3598 -11.3361,-107.156l0 -249.02 -137.152 0 0 284.148c0,50.5225 -2.51913,83.0379 -7.37078,97.6861 -4.805,14.6483 -12.5023,25.5178 -22.6721,32.6553 -10.3098,7.18418 -24.165,10.8229 -41.7988,10.8229 -21.1793,0 -40.1661,-5.64471 -57.0069,-17.1674 -17.0274,-11.2894 -29.1566,-27.8037 -36.5273,-49.3096 -7.32413,-21.5059 -10.9629,-57.0069 -10.9629,-106.83l0 -252.006 -137.199 0 0 518.52z"
     id="path862" /></glyph>
   <glyph
   unicode="k"
   horiz-adv-x="556"
   id="glyph868"><path
     d="M66.8502 0l0 715.852 137.339 0 0 -379.875 160.478 182.543 169.015 0 -177.179 -189.354 189.821 -329.166 -147.835 0 -130.481 232.833 -63.8179 -66.8502 0 -165.982 -137.339 0z"
     id="path866" /></glyph>
   <glyph
   unicode="s"
   horiz-adv-x="499"
   id="glyph872"><path
     d="M30.8387 154.848l86.8199 13.6515c4.84515,-34.8327 18.4967,-61.5138 40.8564,-80.1742 22.1633,-18.4967 53.3294,-27.8269 93.4983,-27.8269 40.3326,0 70.3202,8.34807 89.8317,24.6841 19.4788,16.4997 29.3328,35.8148 29.3328,57.8144 0,20.0026 -8.67544,35.4875 -26.0263,47.0111 -11.9819,7.82427 -41.9695,17.6455 -89.8317,29.6602 -64.3292,16.336 -109.147,30.3149 -133.995,42.3296 -24.815,11.851 -43.8355,28.3507 -56.6686,49.3354 -12.8331,20.9847 -19.3151,44.1629 -19.3151,69.5017 0,23.1782 5.33621,44.4903 15.9759,64.1655 10.5087,19.8389 25.0115,36.1749 43.1808,49.1717 13.6843,9.98494 32.3447,18.6604 55.8502,25.6662 23.6365,7.00583 48.9753,10.5087 75.9838,10.5087 40.66,0 76.3439,-6.0237 107.183,-17.6783 30.806,-11.6546 53.4931,-27.4995 68.1595,-47.5021 14.6664,-20.1663 24.6513,-46.8474 30.1512,-80.3379l-85.8378 -11.8182c-3.99398,26.6483 -15.3212,47.5021 -33.9815,62.4959 -18.6604,14.9938 -45.1778,22.4907 -79.3557,22.4907 -40.3326,0 -69.1416,-6.67845 -86.3288,-20.0026 -17.3181,-13.3242 -25.9936,-29.0054 -25.9936,-46.8146 0,-11.5236 3.6666,-21.6722 10.8361,-30.8387 7.16951,-9.49388 18.333,-17.1872 33.6542,-23.5055 8.83913,-3.17554 34.669,-10.6724 77.6861,-22.327 62.1685,-16.6634 105.48,-30.184 130.001,-40.8564 24.6513,-10.476 43.9992,-25.9936 58.0109,-46.1599 13.9789,-20.1663 20.9847,-45.145 20.9847,-75.1653 0,-29.3328 -8.67544,-56.8323 -25.6662,-82.8259 -17.1545,-25.8299 -41.8385,-45.8325 -73.9868,-60.0079 -32.181,-14.1753 -68.6833,-21.1484 -109.343,-21.1484 -67.5047,0 -118.837,13.9789 -154.161,42.0022 -35.3565,27.9906 -57.8472,69.5017 -67.5047,124.501z"
     id="path870" /></glyph>
   <glyph
   unicode="u"
   horiz-adv-x="610"
   id="glyph876"><path
     d="M413.183 0l0 77.6731c-19.0334,-27.6637 -43.8515,-49.4962 -74.5008,-65.4973 -30.836,-15.8612 -63.3514,-23.8384 -97.4995,-23.8384 -34.8479,0 -66.0104,7.65068 -93.6742,22.8121 -27.6637,15.348 -47.6768,36.8539 -60.1791,64.5176 -12.3157,27.6637 -18.4736,66.0104 -18.4736,114.854l0 328 137.152 0 0 -238.197c0,-73.008 2.47248,-117.653 7.65068,-134.167 4.9916,-16.3277 14.1818,-29.3432 27.5238,-38.9998 13.2954,-9.65665 30.3228,-14.3217 50.8024,-14.3217 23.5118,0 44.5046,6.34447 63.0248,19.1734 18.4736,13.0155 31.1625,28.83 37.9735,47.8168 6.85762,19.1734 10.3564,65.8238 10.3564,139.998l0 218.698 137.152 0 0 -518.52 -127.309 0z"
     id="path874" /></glyph>
   <glyph
   unicode="t"
   horiz-adv-x="277"
   id="glyph880"><path
     d="M257.817 78.6708l12.6902 -77.6678c-24.6827,-5.18948 -46.8362,-7.84964 -66.3294,-7.84964 -32.0091,0 -56.6918,5.01505 -74.3535,15.176 -17.4872,9.98648 -29.8286,23.3309 -36.9805,39.8587 -7.1955,16.3098 -10.8587,50.979 -10.8587,103.659l0 298.33 -64.4978 0 0 68.3354 64.4978 0 0 128.472 87.5234 52.6798 0 -181.152 88.3084 0 0 -68.3354 -88.3084 0 0 -303.17c0,-25.1624 1.48271,-41.167 4.49174,-48.3189 3.18346,-7.1955 8.1549,-12.8647 15.176,-17.182 6.97745,-4.18647 17.0075,-6.32332 30.0031,-6.32332 9.81204,0 22.6331,1.13384 38.6377,3.48873z"
     id="path878" /></glyph>
  </font>
</defs>
</svg>
